Death Race Inferno(2013) 1080p[Dual Audio][ENG(5.1)-HINDI(5.1)]

View previous topic View next topic Go down

Death Race Inferno(2013) 1080p[Dual Audio][ENG(5.1)-HINDI(5.1)]

Post  RobiNHooD on Mon Mar 04, 2013 5:03 pm

Death Race Inferno(2013) 1080p[Dual Audio][ENG(5.1)-HINDI(5.1)]


General

Complete name : Death Race 3 Inferno(2013) 1080p[Dual Audio][ENG(5.1)-HINDI(5.1)]~{PHDR}~ : Matroska
Format version : Version 2
File size : 3.05 GiB
Duration : 1h 45mn
Overall bit rate : 4 146 Kbps
Movie name : Death Race 3 Inferno(2013) 1080p[Dual Audio][ENG(5.1)-HINDI(5.1)]~{PHDR}~


Video
ID : 1
Format : AVC
Format/Info : Advanced Video Codec
Format profile : High@L4.1
Format settings, CABAC : Yes
Format settings, ReFrames : 4 frames
Codec ID : V_MPEG4/ISO/AVC
Duration : 1h 45mn
Bit rate : 3 250 Kbps
Width : 1 920 pixels
Height : 1 072 pixels
Display aspect ratio : 16:9
Frame rate mode : Constant
Frame rate : 23.976 fps
Color space : YUV
Chroma subsampling : 4:2:0
Bit depth : 8 bits
Scan type : Progressive
Bits/(Pixel*Frame) : 0.066
Stream size : 2.33 GiB (76%)
Writing library : x264 core 129 r2230 1cffe9f
Language : English
Default : Yes
Forced : No

Audio #1
ID : 2
Format : AC-3
Format/Info : Audio Coding 3
Mode extension : CM (complete main)
Format settings, Endianness : Big
Codec ID : A_AC3
Duration : 1h 45mn
Bit rate mode : Constant
Bit rate : 448 Kbps
Channel(s) : 6 channels
Channel positions : Front: L C R, Side: L R, LFE
Sampling rate : 48.0 KHz
Bit depth : 16 bits
Compression mode : Lossy
Stream size : 337 MiB (11%)
Title : Original DVD~{PHDR}~
Language : Hindi
Default : Yes
Forced : No

Audio #2
ID : 3
Format : AC-3
Format/Info : Audio Coding 3
Mode extension : CM (complete main)
Format settings, Endianness : Big
Codec ID : A_AC3
Duration : 1h 45mn
Bit rate mode : Constant
Bit rate : 448 Kbps
Channel(s) : 6 channels
Channel positions : Front: L C R, Side: L R, LFE
Sampling rate : 48.0 KHz
Bit depth : 16 bits
Compression mode : Lossy
Stream size : 337 MiB (11%)
Language : English
Default : No
Forced : No








DownloaD Links

[You must be registered and logged in to see this link.]

[You must be registered and logged in to see this link.]

[You must be registered and logged in to see this link.]

Enjoy The Movie
avatar
RobiNHooD
Admin

Posts : 36
Join date : 2012-12-14

Back to top Go down

View previous topic View next topic Back to top

- Similar topics

 
Permissions in this forum:
You cannot reply to topics in this forum